<?xml version="1.0" standalone="no"?>
<!DOCTYPE svg PUBLIC "-//W3C//DTD SVG 1.1//EN" "http://www.w3.org/Graphics/SVG/1.1/DTD/svg11.dtd" >
<svg xmlns="http://www.w3.org/2000/svg">
<metadata>Generated by IcoMoon</metadata>
<defs>
<font id="icomoon" horiz-adv-x="1024">
<font-face units-per-em="1024" ascent="870.850439882698" descent="-153.14956011730206" />
<missing-glyph horiz-adv-x="1024" />
<glyph unicode="&#x20;" horiz-adv-x="0" d="" />
<glyph unicode="&#xe800;" glyph-name="left-open-big" horiz-adv-x="476" d="M467.392-95.95q26.884-26.884 0-49.632-26.884-26.884-49.632 0l-405.349 407.417q-24.816 24.816 0 51.7l405.349 407.417q22.748 26.884 49.632 0 26.884-22.748 0-49.632l-370.191-384.668z" />
<glyph unicode="&#xe900;" glyph-name="close" d="M0 743.264l102.7 102.7 410.802-410.802 410.802 410.802 102.7-102.7-410.802-410.802 410.802-410.802-102.7-102.7-410.802 410.802-410.802-410.802-102.7 102.7 410.802 410.802-410.802 410.802z" />
<glyph unicode="&#xe901;" glyph-name="credit-card" horiz-adv-x="1120" d="M938.31 641.591v-98.033l65.356-28.008v256.751c0 42.014-32.678 74.692-74.692 74.692h-723.573c-37.344 0-70.022-28.008-74.692-65.356h667.554c74.692 0 140.046-60.686 140.046-140.046zM0 520.217v-65.356h536.844c46.682 23.342 93.364 42.014 144.714 65.356h-681.559zM0 384.839v-191.397c0-42.014 32.678-74.692 74.692-74.692h410.802v266.088h-485.494zM858.95 641.591c0 42.014-32.678 74.692-74.692 74.692h-709.568c-42.014 0-74.692-32.678-74.692-74.692v-56.020h858.95v56.020zM1120.37 361.498c0 14.006-9.336 23.342-18.672 28.008l-247.415 112.036c-9.336 4.67-18.672 4.67-28.008 0l-247.415-112.036c-9.336-4.67-18.672-18.672-18.672-28.008v-200.733c-4.67-79.358 28.008-154.050 88.696-200.733l172.724-130.71c9.336-9.336 28.008-9.336 37.344 0l172.724 130.71c60.686 51.35 93.364 126.042 88.696 200.733v200.733zM994.328 230.789l-158.72-158.72c-14.006-14.006-32.678-14.006-46.682 0 0 0 0 0 0 0l-74.692 74.692c-14.006 14.006-14.006 32.678 0 46.682s32.678 14.006 46.682 0l51.35-51.35 135.378 135.378c14.006 14.006 32.678 14.006 46.682 0s14.006-32.678 0-46.682v0z" />
<glyph unicode="&#xe902;" glyph-name="heart" d="M524.639-120.716c-10.633 0-21.27 3.543-28.36 10.633-42.537 42.537-95.71 88.621-148.883 134.704-152.429 138.25-311.948 276.499-336.762 400.569-42.537 134.704 35.45 276.499 173.698 326.127 124.070 42.537 262.32 0 333.216-99.257 53.174 70.897 138.25 116.98 233.96 116.98v0c0 0 0 0 0 0 155.974 0 283.589-120.525 283.589-269.41 0-24.813-3.543-49.626-10.633-74.443-14.18-106.347-127.615-209.147-258.775-329.672-70.897-63.807-141.793-131.16-205.602-202.057-3.543-7.090-10.633-10.633-17.723-14.18-3.543 3.543-10.633 0-17.723 0zM283.589 687.514c-24.813 0-49.626-3.543-70.897-14.18-95.71-35.45-148.883-134.704-120.525-226.871 0 0 0-3.543 0-3.543 17.723-95.71 173.698-233.96 311.948-358.031 42.537-38.993 81.532-74.443 120.525-106.347 60.264 63.807 124.070 120.525 187.877 180.788 116.98 106.347 226.871 205.602 233.96 283.589 0 3.543 0 7.090 0 7.090 7.090 17.723 7.090 35.45 7.090 53.174 0 102.8-92.167 187.877-202.057 187.877-88.621 0-166.609-53.174-194.967-131.16-3.543-14.18-21.27-28.36-35.45-28.36-17.723 0-31.903 7.090-38.993 24.813-3.543 7.090-7.090 14.18-14.18 21.27 0 3.543-3.543 3.543-3.543 7.090-31.903 60.264-106.347 102.8-180.788 102.8z" />
<glyph unicode="&#xe903;" glyph-name="exclamation" d="M516.816 845.964c-284.911 0-516.816-231.904-516.816-516.816s231.904-516.816 516.816-516.816 516.816 231.904 516.816 516.816v0c-6.624 284.911-238.53 516.816-516.816 516.816 0 0 0 0 0 0zM516.816-101.531c-238.53 0-430.68 192.149-430.68 430.68s192.149 430.68 430.68 430.68c238.53 0 430.68-192.149 430.68-430.68s-192.149-430.68-430.68-430.68c0 0 0 0 0 0zM513.37 587.292c-19.876 0-39.756-19.876-39.756-39.756v0-258.408c0-19.876 19.876-39.756 39.756-39.756s39.756 19.876 39.756 39.756v258.408c0 19.876-19.876 39.756-39.756 39.756v0zM565.582 146.408c0-29.276-23.731-53.008-53.008-53.008s-53.008 23.731-53.008 53.008c0 29.276 23.731 53.008 53.008 53.008s53.008-23.731 53.008-53.008z" />
<glyph unicode="&#xe904;" glyph-name="pencil" d="M99.588 137.33l-99.588-317.438 317.438 105.812-217.85 211.625zM175.601 211.903l501.735 501.735 215.658-215.658-501.735-501.735-215.658 215.658zM1011.134 684.132l-143.159 149.383c-18.672 18.672-49.795 18.672-68.468 0 0 0 0 0 0 0l-49.795-49.795 217.85-217.85 43.57 43.57c18.672 24.896 18.672 56.020 0 74.692 0 0 0 0 0 0z" />
<glyph unicode="&#xe905;" glyph-name="instagram" d="M706.067-181.042h-385.127c-175.058 0-320.939 145.881-320.939 320.939v385.127c0 175.058 145.881 320.939 320.939 320.939h385.127c175.058 0 320.939-145.881 320.939-320.939v-385.127c0-175.058-145.881-320.939-320.939-320.939zM320.939 752.6c-122.541 0-221.74-99.2-221.74-221.74v-385.127c0-122.541 99.2-221.74 221.74-221.74h385.127c122.541 0 221.74 99.2 227.575 221.74v379.292c0 122.541-99.2 221.74-227.575 221.74h-385.127zM513.502 99.052c-128.375 0-233.41 105.034-233.41 233.41s105.034 233.41 233.41 233.41 233.41-105.034 233.41-233.41-105.034-233.41-233.41-233.41zM513.502 472.508c-75.858 0-140.046-64.189-140.046-140.046s64.189-140.046 140.046-140.046 140.046 64.189 140.046 140.046v0c0 75.858-64.189 140.046-140.046 140.046zM793.595 612.555c0-25.781-20.899-46.682-46.682-46.682s-46.682 20.899-46.682 46.682c0 25.781 20.899 46.682 46.682 46.682s46.682-20.899 46.682-46.682z" />
<glyph unicode="&#xe906;" glyph-name="language" d="M877.623 696.584c-200.733 196.064-527.508 196.064-728.24-4.67-196.064-200.733-196.064-522.84 0-723.573 200.733-196.064 527.508-196.064 728.24 4.67 196.064 200.733 196.064 522.84 0 723.573zM415.471 775.942c-18.672-18.672-37.344-37.344-56.020-60.686-28.008-37.344-56.020-84.028-79.358-130.71h-140.046c65.356 98.033 163.387 163.387 275.424 191.397zM102.7 523.858h154.050c-18.672-51.35-28.008-107.37-28.008-163.387h-168.056c4.67 60.686 18.672 116.706 42.014 163.387zM60.686 304.453h168.056c4.67-56.020 14.006-112.036 32.678-163.387h-158.72c-23.342 51.35-37.344 102.7-42.014 163.387v0zM140.046 80.379h140.046c23.342-46.682 46.682-88.696 79.358-130.71 18.672-23.342 37.344-42.014 56.020-60.686-112.036 28.008-210.070 93.364-275.424 191.397v0zM485.494-92.345c-28.008 23.342-51.35 51.35-74.692 79.358s-42.014 60.686-60.686 93.364h135.378v-172.724zM485.494 141.066h-163.387c-18.672 51.35-32.678 107.37-32.678 163.387h196.064v-163.387zM485.494 360.471h-196.064c0 56.020 14.006 112.036 32.678 163.387h163.387v-163.387zM485.494 584.544h-135.378c18.672 32.678 37.344 60.686 60.686 88.696s46.682 56.020 74.692 79.358v-168.056zM966.32 360.471h-168.056c-4.67 56.020-14.006 112.036-32.678 163.387h154.050c28.008-51.35 42.014-102.7 46.682-163.387v0zM886.959 584.544h-140.046c-23.342 46.682-46.682 88.696-79.358 130.71-18.672 23.342-37.344 42.014-56.020 60.686 112.036-28.008 210.070-93.364 275.424-191.397zM541.512 757.27c28.008-23.342 51.35-51.35 74.692-79.358s42.014-60.686 60.686-93.364h-135.378v172.724zM541.512 523.858h163.387c18.672-51.35 32.678-107.37 32.678-163.387h-196.064v163.387zM541.512 304.453h196.064c-4.67-56.020-14.006-112.036-32.678-163.387h-163.387v163.387zM541.512-92.345v168.056h135.378c-18.672-32.678-37.344-60.686-60.686-88.696-18.672-28.008-46.682-51.35-74.692-79.358v0zM611.535-111.018c18.672 18.672 37.344 37.344 56.020 60.686 32.678 37.344 60.686 84.028 79.358 130.71h140.046c-65.356-98.033-163.387-163.387-275.424-191.397v0zM924.306 141.066h-154.050c18.672 51.35 28.008 107.37 32.678 163.387h168.056c-9.336-60.686-23.342-112.036-46.682-163.387v0z" />
<glyph unicode="&#xe907;" glyph-name="linkedin" d="M577.691-181.042h-221.74c0 5.836 5.836 630.208 0 694.396h221.74v-99.2c40.847 75.858 116.706 116.706 198.399 116.706 70.022 0 134.211-23.342 180.893-75.858 52.517-64.189 75.858-151.717 70.022-233.41v-396.797h-221.74v373.457c0 70.022-17.506 157.553-110.869 157.553-52.517-11.669-93.364-46.682-110.869-93.364-5.836-17.506-5.836-35.011-5.836-58.353v-385.127zM233.41-181.042h-221.74v694.396h221.74v-694.396zM122.541 606.72v0c-64.189 0-122.541 46.682-122.541 110.869 0 0 0 5.836 0 5.836 0 70.022 46.682 122.541 110.869 122.541 5.836 0 11.669 0 11.669 0 64.189 5.836 116.706-46.682 122.541-110.869 0-5.836 0-5.836 0-11.669 0-64.189-46.682-116.706-110.869-122.541-5.836 5.836-5.836 5.836-11.669 5.836z" />
<glyph unicode="&#xe908;" glyph-name="user-hover" horiz-adv-x="1031" d="M703.137 309.024c68.183 55.399 115.058 140.627 115.058 234.379 0 166.196-136.366 302.561-302.561 302.561s-302.561-136.366-302.561-302.561c0-93.751 42.616-178.98 115.058-234.379-187.503-72.445-323.869-251.425-328.13-468.758 0-12.783 8.522-21.308 21.308-21.308v0h988.653c12.783 0 21.308 8.522 21.308 21.308 0 0 0 0 0 0-4.261 217.333-136.366 396.314-328.13 468.758z" />
<glyph unicode="&#xe909;" glyph-name="user" d="M877.235 182.691c-55.629 55.629-119.818 98.421-196.843 124.096 136.934 94.143 171.168 278.147 77.025 410.802s-278.147 171.168-410.802 77.025-171.168-278.147-77.025-410.802c21.396-29.954 47.071-55.629 77.025-77.025-209.681-72.746-346.614-269.589-346.614-487.827h81.304c0 239.635 192.564 432.198 432.198 432.198s432.198-192.564 432.198-432.198h81.304c0 136.934-55.629 265.31-149.771 363.732zM513.502 332.462c-119.818 0-218.239 98.421-218.239 218.239s98.421 218.239 218.239 218.239 218.239-98.421 218.239-218.239c0 0 0 0 0 0 0-119.818-98.421-218.239-218.239-218.239z" />
<glyph unicode="&#xe90a;" glyph-name="down-arrow" horiz-adv-x="1896" d="M995.405-149.441l884.804 869.006c15.799 31.601 15.799 79-15.799 110.601-15.799 15.799-63.201 15.799-94.8 0l-821.605-821.605-821.605 821.605c-31.601 31.601-79 31.601-110.601 0s-31.601-79 0-110.601c0 0 0 0 0 0l869.006-869.006c47.4-31.601 79-31.601 110.601 0z" />
<glyph unicode="&#xe90b;" glyph-name="facebook" horiz-adv-x="562" d="M536.844 845.964h-134.211c-128.375 5.836-239.245-93.364-245.081-221.74 0-11.669 0-23.342 0-35.011v-116.706h-134.211c-11.669 5.836-23.342-5.836-23.342-17.506v-169.222c0-11.669 11.669-23.342 23.342-23.342 0 0 0 0 0 0h134.211v-425.974c0-11.669 11.669-23.342 23.342-23.342 0 0 0 0 0 0h175.058c11.669 0 23.342 11.669 23.342 23.342 0 0 0 0 0 0v431.809h157.553c11.669 0 23.342 11.669 23.342 23.342 0 0 0 0 0 0v163.387c0 5.836 0 11.669-5.836 17.506-11.669 0-17.506 5.836-23.342 5.836h-157.553v99.2c0 46.682 11.669 70.022 75.858 70.022h93.364c11.669 0 23.342 11.669 23.342 23.342 0 0 0 0 0 0v151.717c-5.836 11.669-17.506 23.342-29.175 23.342 0 0 0 0 0 0z" />
<glyph unicode="&#xe90c;" glyph-name="phone" d="M997.662 90.383l-146.715 146.715c-36.679 36.679-95.365 36.679-132.044 0-7.335-14.671-14.671-22.006-22.006-36.679-14.671-51.35-66.021-73.358-110.035-66.021-124.709 44.015-227.409 146.715-271.424 271.424-7.335 44.015 14.671 95.365 66.021 110.035s73.358 73.358 58.685 117.373c-7.335 22.006-14.671 29.344-22.006 44.015l-146.715 146.715c-36.679 36.679-102.7 36.679-139.379 0l-95.365-102.7c-95.365-102.7 7.335-374.124 249.416-616.204s513.502-352.117 616.204-249.416l95.365 95.365c36.679 36.679 36.679 102.7 0 139.379z" />
<glyph unicode="&#xe90d;" glyph-name="quick-shop-hover" horiz-adv-x="1384" d="M1079.164 761.343l-426.958-223.095-180.784 88.468 419.264 215.402c11.539 3.847 19.233 3.847 30.772 0l157.705-80.776zM1371.495 619.024l-434.65-215.402-215.402 111.548 426.958 223.095 223.095-119.239zM1383.035 580.558l-434.65-215.402v-453.882l434.65 226.941v442.344zM476.962 280.535c0 3.847-3.847 7.693-3.847 7.693-11.539 11.539-30.772 11.539-42.31 0l-123.087-119.239c-11.539-11.539-11.539-30.772 0-42.31s30.772-11.539 42.31 0l119.239 119.239c0 0 0 0 0 0 3.847 3.847 3.847 3.847 3.847 7.693 7.693 11.539 7.693 19.233 3.847 26.924zM707.749 465.166v-123.087c0-19.233-7.693-34.619-26.924-34.619s-26.924 11.539-26.924 30.772v153.858l-176.937 88.468v-134.625c-34.619 19.233-76.929 30.772-115.394 34.619v57.696h30.772c15.386 0 30.772 15.386 30.772 30.772s-11.539 26.924-30.772 30.772h-123.087c-15.386 0-30.772-15.386-30.772-30.772 3.847-19.233 15.386-30.772 30.772-30.772h30.772v-61.543c-180.784-15.386-315.41-176.937-300.024-357.721s176.937-315.41 357.721-296.178c138.472 11.539 246.173 107.701 284.638 230.787l265.406-138.472v453.882l-200.016 96.162zM588.51 80.518c-30.772-115.394-134.625-200.016-257.713-200.016-150.011 0-269.252 119.239-269.252 269.252s119.239 269.252 269.252 269.252c53.851 0 103.854-15.386 146.166-42.31 73.082-46.157 123.087-130.78 123.087-223.095-3.847-26.924-3.847-50.005-11.539-73.082z" />
<glyph unicode="&#xe90e;" glyph-name="quick-shop" horiz-adv-x="1355" d="M414.537 274.576l-115.772-115.772c-11.204-11.204-11.204-29.876 0-41.080s29.876-11.204 41.080 0l97.1 97.1v67.223c-7.468 0-14.94 0-22.408-7.468zM455.618 233.496c0 0 0 0 0 0 11.204 11.204 11.204 29.876 0 41.080-3.736 3.736-11.204 7.468-18.672 7.468v-67.223l18.672 18.672zM1355.648 603.218c0 11.204-7.468 18.672-14.94 26.142l-433.21 212.87c-7.468 3.736-18.672 3.736-26.142 0l-425.741-212.87c-11.204-3.736-14.94-14.94-14.94-26.142 0 0 0 0 0 0v-168.056c-29.876 11.204-59.752 18.672-89.629 22.408v59.752h29.876c14.94 0 29.876 14.94 29.876 29.876s-11.204 26.142-29.876 29.876h-119.506c-14.94 0-29.876-14.94-29.876-29.876s11.204-26.142 29.876-29.876h29.876v-59.752c-175.524-18.672-306.234-171.79-291.296-347.315s171.79-306.234 347.315-287.562c130.71 11.204 235.278 100.832 272.623 216.605l261.42-134.444c0 0 0 0 3.736 0s7.468-3.736 11.204-3.736c0 0 0 0 0 0s0 0 0 0 0 0 0 0 0 0 3.736 0 7.468 0 7.468 3.736c0 0 0 0 3.736 0l429.475 224.074c7.468 3.736 14.94 14.94 14.94 26.142v448.148c0 0-3.736 0 0 0-3.736 0 0 0 0 0zM896.296 786.212l141.913-70.956-377.191-190.463c-7.468-3.736-11.204-7.468-11.204-14.94l-149.383 74.692 395.864 201.667zM578.858 125.194c0-18.672-3.736-41.080-11.204-59.752-29.876-108.303-130.71-186.728-250.216-186.728-145.648 0-261.42 115.772-261.42 261.42s115.772 261.42 261.42 261.42c41.080 0 82.16-11.204 119.506-29.876 18.672-11.204 37.344-22.408 56.020-37.344 52.284-48.548 85.896-115.772 85.896-194.197 0-7.468 0-11.204 0-14.94zM866.419-27.924l-231.543 123.24c3.736 22.408 3.736 48.548 3.736 74.692-7.468 63.488-29.876 126.976-70.956 175.524l29.876 29.876c11.204 11.204 11.204 29.876 0 41.080s-29.876 11.204-41.080 0l-33.612-33.612c-7.468 7.468-18.672 14.94-29.876 22.408v119.506l149.383-74.692v-156.852c0-14.94 11.204-29.876 29.876-29.876s29.876 11.204 29.876 29.876v126.976l168.056-82.16v-365.987zM896.296 386.613l-194.197 97.1 399.598 197.932 194.197-97.1-399.598-197.932zM1299.629 166.274l-373.457-194.197v365.987l373.457 186.728v-358.518z" />
<glyph unicode="&#xe90f;" glyph-name="share" d="M762.919 513.411c92.921 0 166.276 73.358 166.276 166.276s-73.358 166.276-166.276 166.276-166.276-73.358-166.276-166.276c0-19.562 4.891-44.015 14.671-63.576l-156.497-107.591c-39.124 34.232-92.921 53.795-146.715 53.795-127.153 0-234.744-102.7-234.744-234.744s107.591-234.744 234.744-234.744c44.015 0 88.029 14.671 127.153 39.124l97.81-92.921c-9.782-19.562-14.671-44.015-14.671-63.576 0-83.138 68.468-151.606 151.606-151.606s151.606 68.468 151.606 151.606-68.468 151.606-151.606 151.606c-29.344 0-63.576-9.782-88.029-29.344l-92.921 88.029c29.344 39.124 48.906 92.921 48.906 141.825 0 44.015-9.782 83.138-34.232 122.262l146.715 102.7c34.232-24.453 73.358-39.124 112.482-39.124zM674.889-97.903c-39.124 0-73.358 34.232-73.358 73.358s34.232 73.358 73.358 73.358 73.358-34.232 73.358-73.358-34.232-73.358-73.358-73.358zM464.598 327.572c0-88.029-68.468-156.497-156.497-156.497s-156.497 68.468-156.497 156.497 68.468 156.497 156.497 156.497 156.497-68.468 156.497-156.497zM762.919 767.717c48.906 0 88.029-39.124 88.029-88.029s-39.124-88.029-88.029-88.029-88.029 39.124-88.029 88.029c0 48.906 39.124 88.029 88.029 88.029z" />
<glyph unicode="&#xe910;" glyph-name="search" d="M1020.964-114.588l-296.020 296.020c138.948 175.195 114.783 428.926-60.412 573.914s-428.926 114.783-573.914-60.412-114.783-428.926 60.412-573.914c151.029-120.825 362.473-120.825 513.502 0l296.020-296.020c6.042-6.042 24.166-6.042 30.205 0l30.205 30.205c6.042 6.042 6.042 24.166 0 30.205 0 0 0 0 0 0zM404.761 121.019c-175.195 0-320.184 144.989-320.184 320.184s144.989 320.184 320.184 320.184c175.195 0 320.184-144.989 320.184-320.184v0c0-181.237-138.948-320.184-320.184-320.184z" />
<glyph unicode="&#xe911;" glyph-name="cart-hover" horiz-adv-x="1080" d="M1072.375 709.854c-4.124 8.249-16.498 12.373-24.747 12.373h-829.029l-20.622 98.989c-4.124 16.498-16.498 24.747-32.996 24.747h-131.985c-20.622 0-32.996-12.373-32.996-28.871s12.373-28.871 28.871-28.871c0 0 0 0 0 0h111.363l156.732-672.297c4.124-12.373 16.498-24.747 28.871-24.747h622.803c16.498 0 28.871 12.373 28.871 28.871s-12.373 28.871-28.871 28.871c0 0 0 0 0 0h-593.931l-24.747 103.113h622.803c16.498 0 28.871 8.249 28.871 24.747l94.864 408.328c4.124 8.249 0 20.622-4.124 24.747zM457.822 46.344c-65.991 0-115.488-49.493-115.488-115.488s49.493-115.488 115.488-115.488c61.867 0 115.488 49.493 115.488 115.488v0c-4.124 65.991-53.618 115.488-115.488 115.488zM831.38 46.344c-65.991 0-115.488-49.493-115.488-115.488 0-61.867 49.493-115.488 115.488-115.488 61.867 0 115.488 49.493 115.488 115.488v0c-4.124 65.991-53.618 115.488-115.488 115.488z" />
<glyph unicode="&#xe912;" glyph-name="cart" horiz-adv-x="1076" d="M1068.25 709.854c-4.124 8.249-12.373 12.373-24.747 12.373h-824.905l-24.747 98.989c0 16.498-12.373 24.747-28.871 24.747h-131.985c-20.622 0-32.996-12.373-32.996-28.871s12.373-28.871 28.871-28.871h111.363l156.732-672.297c4.124-12.373 16.498-24.747 28.871-24.747h622.803c16.498 0 28.871 12.373 28.871 28.871s-12.373 28.871-28.871 28.871v0h-593.931l-24.747 103.113h622.803c12.373 0 28.871 8.249 28.871 24.747l94.864 408.328c0 8.249 0 20.622-8.249 24.747zM928.016 313.902h-614.554l-82.49 346.46h771.285l-74.241-346.46zM456.996 48.407c-65.991 0-115.488-49.493-115.488-115.488 0-61.867 49.493-115.488 115.488-115.488 61.867 0 115.488 49.493 115.488 115.488-4.124 65.991-53.618 115.488-115.488 115.488zM456.996-116.575c-28.871 0-53.618 20.622-53.618 49.493s24.747 53.618 53.618 53.618c28.871 0 49.493-24.747 49.493-53.618 0 0 0 0 0 0 0-28.871-20.622-49.493-49.493-49.493zM829.524 48.407c-65.991 0-115.488-49.493-115.488-115.488 0-61.867 49.493-115.488 115.488-115.488 61.867 0 115.488 49.493 115.488 115.488-4.124 65.991-53.618 115.488-115.488 115.488zM829.524-116.575c-28.871 0-53.618 20.622-53.618 49.493s24.747 53.618 53.618 53.618c28.871 0 49.493-24.747 49.493-53.618 0 0 0 0 0 0 0-28.871-20.622-49.493-49.493-49.493z" />
<glyph unicode="&#xe913;" glyph-name="menu" d="M974.95 634.34h-921.893c-29.845 0-53.060 26.53-53.060 53.060s23.215 53.060 53.060 53.060h921.893c29.845 0 53.060-23.215 53.060-53.060s-23.215-53.060-53.060-53.060zM974.95 269.561h-921.893c-29.845 0-53.060 23.215-53.060 53.060s23.215 53.060 53.060 53.060h921.893c29.845 0 53.060-23.215 53.060-53.060s-23.215-53.060-53.060-53.060zM974.95-95.216h-921.893c-29.845 0-53.060 23.215-53.060 53.060s23.215 53.060 53.060 53.060h921.893c29.845 0 53.060-23.215 53.060-53.060s-23.215-53.060-53.060-53.060z" />
<glyph unicode="&#xe914;" glyph-name="right-arrow" d="M323.659-168.334c-6.204-7.238-14.476-10.34-22.748-10.34s-17.578 3.102-23.782 10.34c-12.408 12.408-12.408 33.088 0 46.53l409.485 408.451-409.485 408.451c-12.408 13.442-12.408 34.122 0 46.53s34.122 13.442 46.53 0l432.234-431.2c12.408-13.442 12.408-34.122 0-46.53l-432.234-432.234z" />
<glyph unicode="&#xe9da;" glyph-name="heart-hover" d="M757.405 813.871c-107.945 0-200.846-87.812-243.878-179.525-43.064 91.712-135.977 179.525-243.93 179.525-148.817 0-269.597-120.794-269.597-269.621 0-302.732 305.394-382.112 513.525-681.412 196.73 297.446 513.48 388.343 513.48 681.412 0 148.827-120.784 269.621-269.601 269.621z" />
<glyph unicode="&#xea3c;" glyph-name="arrow-right2" d="M621.254 18.746l320 320c24.994 24.992 24.994 65.516 0 90.51l-320 320c-24.994 24.992-65.516 24.992-90.51 0-24.994-24.994-24.994-65.516 0-90.51l210.746-210.746h-613.49c-35.346 0-64-28.654-64-64s28.654-64 64-64h613.49l-210.746-210.746c-12.496-12.496-18.744-28.876-18.744-45.254s6.248-32.758 18.744-45.254c24.994-24.994 65.516-24.994 90.51 0z" />
<glyph unicode="&#xea96;" glyph-name="twitter" d="M1026.003 660.774c-37.308-18.654-79.281-27.981-121.254-32.646 41.973 27.981 74.619 69.954 93.273 116.592-41.973-23.319-83.946-41.973-135.246-51.3-37.308 41.973-93.273 65.292-153.9 65.292-116.592 0-209.865-93.273-209.865-209.865 0-18.654 0-32.646 4.665-46.636-177.219 9.327-331.119 93.273-433.72 219.192-18.654-32.646-27.981-69.954-27.981-107.265 0-74.619 37.308-139.909 93.273-177.219-32.646 0-65.292 9.327-93.273 27.981v-4.665c0-102.6 74.619-186.546 167.892-209.865-18.654 0-37.308-4.665-55.965-4.665-13.992 0-27.981 0-37.308 4.665 23.319-83.946 102.6-144.573 195.873-149.237-74.619-55.965-163.227-88.609-261.165-88.609-18.654 0-32.646 0-51.3 0 93.273-60.627 205.2-93.273 321.792-93.273 387.083 0 596.947 321.792 596.947 601.611v27.981c41.973 32.646 79.281 69.954 107.265 111.927z" />
<glyph unicode="&#xead1;" glyph-name="pinterest" d="M512.5 821.559c-245.239 0-444.034-198.794-444.034-444.034 0-188.184 117.114-348.741 282.276-413.404-3.804 35.034-7.407 89.087 1.602 127.324 8.008 34.634 52.051 220.615 52.051 220.615s-13.213 26.626-13.213 65.864c0 61.66 35.835 107.905 80.278 107.905 37.837 0 56.255-28.428 56.255-62.461 0-38.037-24.224-95.093-36.836-147.744-10.61-44.243 22.022-80.278 65.664-80.278 78.877 0 139.536 83.281 139.536 203.399 0 106.304-76.475 180.576-185.381 180.576-126.323 0-200.396-94.692-200.396-192.788 0-38.237 14.614-79.077 33.032-101.299 3.604-4.404 4.204-8.208 3.003-12.813-3.403-14.014-10.811-44.243-12.412-50.449-2.002-8.208-6.406-9.81-14.814-6.006-55.454 25.825-90.088 106.904-90.088 171.968 0 140.137 101.699 268.662 293.286 268.662 153.95 0 273.667-109.707 273.667-256.45 0-152.949-96.494-276.27-230.425-276.27-45.044 0-87.285 23.423-101.699 51.050 0 0-22.222-84.683-27.627-105.503-10.010-38.638-37.036-86.885-55.254-116.314 41.641-12.813 85.684-19.819 131.528-19.819 245.239 0 444.034 198.794 444.034 444.034 0 245.44-198.794 444.234-444.034 444.234z" />
<glyph unicode="&#xead2;" glyph-name="pinterest1" d="M513.001 815.512c-245.479 0-444.468-198.988-444.468-444.468 0-188.368 117.228-349.082 282.552-413.808-3.808 35.068-7.414 89.174 1.604 127.448 8.016 34.668 52.102 220.831 52.102 220.831s-13.226 26.652-13.226 65.928c0 61.72 35.87 108.010 80.356 108.010 37.874 0 56.31-28.456 56.31-62.522 0-38.074-24.248-95.186-36.872-147.888-10.62-44.286 22.044-80.356 65.728-80.356 78.954 0 139.672 83.362 139.672 203.598 0 106.408-76.55 180.753-185.562 180.753-126.446 0-200.592-94.785-200.592-192.976 0-38.274 14.628-79.154 33.064-101.398 3.608-4.408 4.208-8.216 3.006-12.826-3.406-14.028-10.822-44.286-12.424-50.498-2.004-8.216-6.412-9.82-14.828-6.012-55.508 25.85-90.176 107.009-90.176 172.136 0 140.274 101.798 268.925 293.573 268.925 154.1 0 273.935-109.814 273.935-256.701 0-153.099-96.588-276.54-230.65-276.54-45.088 0-87.37 23.446-101.798 51.1 0 0-22.244-84.766-27.654-105.606-10.020-38.676-37.072-86.97-55.308-116.428 41.682-12.826 85.768-19.838 131.657-19.838 245.479 0 444.468 198.988 444.468 444.468 0 245.68-198.988 444.668-444.468 444.668z" />
</font>
</defs>
</svg>
